The.Well.2014.WEB-DL.x264-RARBG

  • Category Movies
  • Type Mp4
  • Language English
  • Total size 829.4 MB
  • Uploaded By TeXTX
  • Downloads 177
  • Last checked 1 day ago
  • Date uploaded 3 years ago
  • Seeders 0
  • Leechers 0

Infohash : FF17FEB0AFE578A6D703DB995834EAD31B079F8C

The.Well.2014.WEB-DL.x264-RARBG

Screens:







Info:

[mediainfo]

Video
ID : 1
Format : AVC
Format/Info : Advanced Video Codec
Format profile : [email protected]
Format settings, CABAC : Yes
Format settings, ReFrames : 5 frames
Codec ID : avc1
Codec ID/Info : Advanced Video Coding
Duration : 1h 34mn
Bit rate : 1 100 Kbps
Width : 720 pixels
Height : 304 pixels
Display aspect ratio : 2.40:1
Frame rate mode : Constant
Frame rate : 23.976 fps
Color space : YUV
Chroma subsampling : 4:2:0
Bit depth : 8 bits
Scan type : Progressive
Bits/(Pixel*Frame) : 0.210
Stream size : 738 MiB (89%)
Title : The.Well.2014.WEB-DL.x264-RARBG
Writing library : x264 core 142 r2495 6a301b6
Encoding settings : cabac=1 / ref=5 / deblock=1:-2:-2 / analyse=0x3:0x113 / me=umh / subme=8 / psy=1 / psy_rd=0.90:0.00 / mixed_ref=1 / me_range=16 / chroma_me=1 / trellis=1 / 8x8dct=1 / cqm=0 / deadzone=21,11 / fast_pskip=1 / chroma_qp_offset=-2 / threads=8 / lookahead_threads=2 / sliced_threads=0 / nr=0 / decimate=1 / interlaced=0 / bluray_compat=0 / constrained_intra=0 / bframes=3 / b_pyramid=2 / b_adapt=2 / b_bias=0 / direct=3 / weightb=1 / open_gop=0 / weightp=2 / keyint=250 / keyint_min=25 / scenecut=40 / intra_refresh=0 / rc_lookahead=50 / rc=abr / mbtree=1 / bitrate=1100 / ratetol=1.0 / qcomp=0.60 / qpmin=0 / qpmax=69 / qpstep=4 / vbv_maxrate=31250 / vbv_bufsize=31250 / nal_hrd=none / filler=0 / ip_ratio=1.40 / aq=1:1.00
Language : English

Audio
ID : 2
Format : AAC
Format/Info : Advanced Audio Codec
Format profile : LC
Codec ID : 40
Duration : 1h 34mn
Duration_LastFrame : 32ms
Bit rate mode : Constant
Bit rate : 128 Kbps
Channel(s) : 6 channels
Channel positions : Front: L C R, Side: L R, LFE
Sampling rate : 48.0 KHz
Compression mode : Lossy
Stream size : 86.9 MiB (10%)
Title : The.Well.2014.WEB-DL.x264-RARBG
Language : English



[/mediainfo]

Notes:
Greetz to all! :)

Files:

  • RARBG.com.mp4 (992.9 KB)
  • RARBG.com.txt (0.0 KB)
  • The.Well.2014.WEB-DL.x264-RARBG.mp4 (828.4 MB)
  • The.Well.2014.WEB-DL.x264-RARBG.nfo (3.0 KB)

There are currently no comments. Feel free to leave one :)

Code:

  • http://tracker.trackerfix.com:80/announce
  • udp://9.rarbg.to:2710/announce
  • udp://9.rarbg.me:2710/announce
  • udp://open.demonii.com:1337/announce
Sitemap05.08.1622:17 Uhr Suicide Squad Soundtrack256 kbit/s 0 / 017.304 Hits VID P2P DDL 0 Kommentare | Daredevil Saison 3 FRENCH HDTV | Facebook Lite 131.0.0.7.117 for Android 4.0 1.2 MB Education and Good Thing - 477 Words | Kittipong Khamsat | 愛乃なみ