She's Funny That Way - Tutto puo accadere a Broadway (2014).BRrip...

  • Category Movies
  • Type Divx/Xvid
  • Language English
  • Total size 1.5 GB
  • Uploaded By robbyrs
  • Downloads 441
  • Last checked 7 months ago
  • Date uploaded 2 years ago
  • Seeders 2
  • Leechers 0

Infohash : F14AB208897C585D491F4007C9B71F0D54C57A45

She's Funny That Way - Tutto puo accadere a Broadway (2014).BRrip.XviD - Italian.English.Ac3.5.1.Sub.ita.iCV-MIRCrew




NO FOUND ONLY ORIGINAL RELEASE



My release is always in double track audio italian and Original audio
for select it use VLC or dvd player home
not use wmp

Tutto puo accadere a Broadway - She's Funny That Way (2014)








Titolo originale She's Funny That Way
Lingua originale inglese
Paese di produzione Stati Uniti d'America
Anno 2014
Durata 93 min
Rapporto 1,66 : 1
Genere commedia
Regia Peter Bogdanovich
Soggetto Peter Bogdanovich
Sceneggiatura Peter Bogdanovich, Louise Stratten
Produttore George Drakoulias, Logan Levy, Louise Stratten, Holly Wiersma
Produttore esecutivo Wes Anderson, Robert Ogden Barnum, Noah Baumbach, Christa Campbell, Nils Dünker, Cassian Elwes, Lati Grobman, Hollis Hill, George J. Steiner Jr., Jeff Rice, Josef Steinberg
Casa di produzione Lagniappe Films, Lailaps Pictures, Venture Forth
Distribuzione (Italia) 01 Distribution
Fotografia Yaron Orbach
Montaggio Nick Moore, Pax Wassermann
Musiche Ed Shearmur
Scenografia Jane Musky
Costumi Peggy A. Schintzer
Trucco Barbara Lacy



Owen Wilson: Arnold Albertson
Imogen Poots: Isabella "Izzy" Patterson
Kathryn Hahn: Delta Simmons
Will Forte: Joshua Fleet
Rhys Ifans: Seth Gilbert
Jennifer Aniston: Jane Claremont
Austin Pendleton: giudice Pendergast
George Morfogen: Harold Fleet
Cybill Shepherd: Nettie Patterson
Richard Lewis: Al Patterson
Sydney Lucas: Josie Albertson
Debi Mazar: Vickie
ecc.................................



Il film si concentra sulla escort diventata attrice teatrale Isabella "Isy" Patterson e segue "l'incontro ricorrente tra questi due aspetti della sua vita". Il regista di Broadway Arnold Albertson, detto Derek, paga per i suoi servizi da escort, nonostante sia sposato con Delta Simmons, la star della sua nuova pièce A Grecian Evening. Anche lo sceneggiatore si innamora di lei.........



On the set of a playwright's new project, a love triangle forms between his wife, her ex-lover, and the call girl-turned-actress cast in the production. ........











[spoiler]
General
Complete name : Tutto puo accadere a Broadway - She's Funny That Way (2014).ita.eng.sub.ita-iCV-MIRCrew\Tutto puo accadere a Broadway - She's Funny That Way (2014).ita.eng.sub.ita-MIRCrew-ICV.avi
Format : AVI
Format/Info : Audio Video Interleave
File size : 1.55 GiB
Duration : 1h 34mn
Overall bit rate : 2 357 Kbps
Movie name : www.icv-crew.org
Writing application : VirtualDubMod 1.5.10.2 (build 2540/release)
Writing library : VirtualDubMod build 2540/release

Video
ID : 0
Format : MPEG-4 Visual
Format profile : [email protected]
Format settings, BVOP : No
Format settings, QPel : No
Format settings, GMC : No warppoints
Format settings, Matrix : Default (H.263)
Codec ID : XVID
Codec ID/Hint : XviD
Duration : 1h 34mn
Bit rate : 1 446 Kbps
Width : 720 pixels
Height : 388 pixels
Display aspect ratio : 1.856
Frame rate : 24.000 fps
Color space : YUV
Chroma subsampling : 4:2:0
Bit depth : 8 bits
Scan type : Progressive
Compression mode : Lossy
Bits/(Pixel*Frame) : 0.216
Stream size : 973 MiB (61%)
Writing library : XviD 64

Audio #1
ID : 1
Format : AC-3
Format/Info : Audio Coding 3
Mode extension : CM (complete main)
Codec ID : 2000
Duration : 1h 34mn
Bit rate mode : Constant
Bit rate : 448 Kbps
Channel(s) : 6 channels
Channel positions : Front: L C R, Side: L R, LFE
Sampling rate : 48.0 KHz
Bit depth : 16 bits
Compression mode : Lossy
Stream size : 301 MiB (19%)
Alignment : Split accross interleaves
Interleave, duration : 42 ms (1.00 video frame)
Interleave, preload duration : 500 ms

Audio #2
ID : 2
Format : AC-3
Format/Info : Audio Coding 3
Mode extension : CM (complete main)
Codec ID : 2000
Duration : 1h 34mn
Bit rate mode : Constant
Bit rate : 448 Kbps
Channel(s) : 6 channels
Channel positions : Front: L C R, Side: L R, LFE
Sampling rate : 48.0 KHz
Bit depth : 16 bits
Compression mode : Lossy
Stream size : 301 MiB (19%)
Alignment : Split accross interleaves
Interleave, duration : 42 ms (1.00 video frame)
Interleave, preload duration : 500 ms




[/spoiler]



Files:

  • Tutto puo accadere a Broadway - She's Funny That Way (2014).ita.eng.sub.ita-MIRCrew-ICV.avi (1.5 GB)
  • Tutto puo accadere a Broadway - She's Funny That Way (2014).ita.eng.sub.ita-MIRCrew-ICV.ita.srt (89.2 KB)
  • Tutto puo accadere a Broadway - She's Funny That Way (2014).ita.eng.sub.ita-MIRCrew-ICV.srt (0.1 KB)

There are currently no comments. Feel free to leave one :)

Code:

  • udp://torrent.gresille.org:80/announce
  • udp://tracker.leechers-paradise.org:6969/announce
  • udp://tracker.openbittorrent.com:80/announce
  • udp://open.demonii.com:1337/announce
  • udp://tracker.coppersurfer.tk:6969/announce
  • udp://tracker.leechers-paradise.org:6969/announce
  • udp://glotorrents.pw:6969/announce
  • udp://tracker.pomf.se:80/announce
  • udp://tracker.openbittorrent.com:80/announce
  • udp://tracker.coppersurfer.tk:6969/announce
  • udp://poloniumsurfer.tk:6969/announce
  • udp://9.rarbg.com:2710/announce
  • udp://9.rarbg.to:2710/announce
  • udp://9.rarbg.me:2710/announce
SitemapRunning Man Episode 22 | 亚特兰大第二季 | Vistas: (192) Comentarios:(1) Lernen Leben (397) | HidupMusik | Charlotte OAV 01 VOSTFR