Game of Thrones S04E09 BRRip XviD B4ND1T69

  • Category TV
  • Type Divx/Xvid
  • Language English
  • Total size 393.2 MB
  • Uploaded By B4ND1T69
  • Downloads 3
  • Last checked 23 hours ago
  • Date uploaded 4 days ago
  • Seeders 2
  • Leechers 0
90%
June 9, 2014, 3:00 am

Game of Thrones

The Night's Watch attempts to defend Castle Black against Mance Rayder's massive wildling army, who plan to siege the fortress from the north, while a secret garrison of wildlings, including Ygritte, are poised to launch a surprise attack from the south.

Infohash : 08CF451B9672C52675112E2E31F9D1316CF46B80

Game.of.Thrones.S04E09.BRRip.XviD.B4ND1T69



Creators: David Benioff, D.B. Weiss
Stars: Emilia Clarke, Peter Dinklage, Kit Harington

Plot/Story:
The Watchers on the Wall
The battle between the Night's Watch and the wildlings has come.

General
Complete name : Game.of.Thrones.S04E09.BRRip.XviD.B4ND1T69.avi
Format : AVI
Format/Info : Audio Video Interleave
File size : 393 MiB
Duration : 50 min 34 s
Overall bit rate : 1 087 kb/s
Writing application : Lavf54.63.104

Video
ID : 0
Format : MPEG-4 Visual
Format profile : [email protected]
Format settings, BVOP : No
Format settings, QPel : No
Format settings, GMC : No warppoints
Format settings, Matrix : Default (H.263)
Codec ID : XVID
Codec ID/Hint : XviD
Duration : 50 min 34 s
Bit rate : 946 kb/s
Width : 624 pixels
Height : 352 pixels
Display aspect ratio : 16:9
Frame rate : 23.976 (24000/1001) FPS
Original frame rate : 23.976 (23976/1000) FPS
Color space : YUV
Chroma subsampling : 4:2:0
Bit depth : 8 bits
Scan type : Progressive
Compression mode : Lossy
Bits/(Pixel*Frame) : 0.180
Stream size : 342 MiB (87%)
Writing library : XviD 64
Subtitles : Yes...Included

Audio
ID : 1
Format : MPEG Audio
Format version : Version 1
Format profile : Layer 3
Mode : Joint stereo
Codec ID : 55
Codec ID/Hint : MP3
Duration : 50 min 34 s
Bit rate mode : Constant
Bit rate : 128 kb/s
Channel(s) : 2 channels
Sampling rate : 48.0 kHz
Compression mode : Lossy
Stream size : 46.3 MiB (12%)
Alignment : Aligned on interleaves
Interleave, duration : 24 ms (0.58 video frame)
Writing library : LAME3.99.3

Screenshots:






Please Seed For As Long As Possible
Or At Least 1:1 Ratio...Thanks
Enjoy Peeps

Files:

Game.of.Thrones.S04E09.BRRip.XviD.B4ND1T69
  • KAT text file.txt (0.1 KB)
  • Seeded by Seedplease SeedBoxes.txt (0.2 KB)
  • Game.of.Thrones.S04E09.BRRip.XviD.B4ND1T69.srt (37.8 KB)
  • Game.of.Thrones.S04E09.BRRip.XviD.B4ND1T69.avi (393.2 MB)

There are currently no comments. Feel free to leave one :)

Code:

  • udp://tracker.coppersurfer.tk:6969/announce
  • udp://tracker.coppersurfer.tk:80/announce
  • udp://p4p.arenabg.com:1337/announce
  • udp://tracker.leechers-paradise.org:6969/announce
  • udp://tracker.opentrackr.org:1337/announce
  • udp://explodie.org:6969/announce
  • udp://tracker.pirateparty.gr:6969/announce
  • udp://eddie4.nl:6969/announce
SitemapTelegram APK Free | Assassin's Creed Kika Keyboard by Kika Tech Inc. Good Download | HD Server Die M├Ądchen aus dem Weltraum | IMDb: 8.1 64 HD Betty White: First Lady of Television | Strange+