Black.Sheep.2018.1080p.WEB-DL.x264.AAC.HORiZON-ArtSubs

  • Category Movies
  • Type h.264/x264
  • Language English
  • Total size 636.6 MB
  • Uploaded By m1337e
  • Downloads 172
  • Last checked 2 hours ago
  • Date uploaded 16 hours ago
  • Seeders 10
  • Leechers 13

Baa Baaa Black Sheep

ActionComedyCrime

The world turns upside down for Baba on his 25th birthday, when he learns that his apparently boring father is in fact a dreaded hitman, and that his family has made a tradition out of this morbid business for the past 12 generations! Now, the time has come for Baba to take over as the 13th. And as if all of this is not enough, there is the strange case of the love interest with her own secrets, a stolen Renoir painting and prowling contract killers. The plot thickens, but is Baba ready for the mayhem that's about to ensue!?

Infohash : EC990D544DB06C2670763347B68A9C953384C4E1

Release: Black.Sheep.2018.1080p.WEB-DL.x264.AAC.HORiZON-ArtSubs



IMDB: http://www.imdb.com/title/tt7440094

Subtitle: English

Plot: After the high-profile killing of Damilola Taylor, Cornelius' family move out of London. But when they discover their new town is run by racists, Cornelius takes a drastic step to survive.


Complete name : Black.Sheep.2018.1080p.WEB-DL.x264.AAC.HORiZON-ArtSubs.mkv
Format : Matroska
Format version : Version 4
File size : 637 MiB
Duration : 26 min 42 s
Overall bit rate : 3 333 kb/s
Encoded date : UTC 2019-02-02 00:10:59
Writing application : mkvmerge v24.0.0 ('Beyond The Pale') 64-bit
Writing library : libebml v1.3.6 + libmatroska v1.4.9

Video
ID : 1
Format : AVC
Format/Info : Advanced Video Codec
Format profile : [email protected]
Format settings : CABAC / 5 Ref Frames
Format settings, CABAC : Yes
Format settings, ReFrames : 5 frames
Codec ID : V_MPEG4/ISO/AVC
Duration : 26 min 42 s
Bit rate : 3 193 kb/s
Width : 1 920 pixels
Height : 1 080 pixels
Display aspect ratio : 16:9
Frame rate mode : Constant
Frame rate : 25.000 FPS
Color space : YUV
Chroma subsampling : 4:2:0
Bit depth : 8 bits
Scan type : Progressive
Bits/(Pixel*Frame) : 0.062
Stream size : 610 MiB (96%)
Writing library : x264 core 157 r7M 303c484
Encoding settings : cabac=1 / ref=5 / deblock=1:0:0 / analyse=0x3:0x113 / me=hex / subme=8 / psy=1 / psy_rd=1.00:0.00 / mixed_ref=1 / me_range=16 / chroma_me=1 / trellis=2 / 8x8dct=1 / cqm=0 / deadzone=21,11 / fast_pskip=1 / chroma_qp_offset=-2 / threads=34 / lookahead_threads=5 / sliced_threads=0 / nr=0 / decimate=1 / interlaced=0 / bluray_compat=0 / stitchable=1 / constrained_intra=0 / bframes=3 / b_pyramid=2 / b_adapt=2 / b_bias=0 / direct=3 / weightb=1 / open_gop=0 / weightp=2 / keyint=infinite / keyint_min=25 / scenecut=40 / intra_refresh=0 / rc_lookahead=50 / rc=crf / mbtree=1 / crf=20.0 / qcomp=0.60 / qpmin=5 / qpmax=69 / qpstep=4 / vbv_maxrate=5500 / vbv_bufsize=15000 / crf_max=0.0 / nal_hrd=none / filler=0 / ip_ratio=1.40 / aq=1:1.00
Default : Yes
Forced : No
Color range : Limited
Color primaries : BT.709
Transfer characteristics : BT.709
Matrix coefficients : BT.709

Audio
ID : 2
Format : AAC LC
Format/Info : Advanced Audio Codec Low Complexity
Codec ID : A_AAC-2
Duration : 26 min 42 s
Bit rate : 137 kb/s
Channel(s) : 2 channels
Channel layout : L R
Sampling rate : 48.0 kHz
Frame rate : 46.875 FPS (1024 SPF)
Compression mode : Lossy
Stream size : 26.2 MiB (4%)
Title : Stereo
Language : English
Default : Yes
Forced : No

Text
ID : 3
Format : UTF-8
Codec ID : S_TEXT/UTF8
Codec ID/Info : UTF-8 Plain Text
Duration : 24 min 26 s
Bit rate : 67 b/s
Count of elements : 268
Stream size : 12.1 KiB (0%)
Language : English
Default : Yes
Forced : No


SCREENSHOTS:



Files:

  • Black.Sheep.2018.1080p.WEB-DL.x264.AAC.HORiZON-ArtSubs.mkv (636.6 MB)

There are currently no comments. Feel free to leave one :)

Code:

  • udp://tracker.opentrackr.org:1337/announce
SitemapStephen Amell | Libraries Demo | Killjoys 2015 Vikings - Season 4 | 财经郎眼 | POWERPOINT操作演示_Powerpoint19.pptx