Extreme Nature Titans of the Ice Age (2013) 2160p) SDR 5.1 x265 1...

  • Category Movies
  • Type UHD
  • Language English
  • Total size 2.0 GB
  • Uploaded By PhunPsyz
  • Downloads 64
  • Last checked 1 hour ago
  • Date uploaded 21 hours ago
  • Seeders 20
  • Leechers 11

Infohash : C9168058D236CE36848A0CC923AF31AA08F15D9B

www.imdb.com/title/tt2653370/

Explore the Pleistocene through archaeological discoveries, reenactments, and CGI.

Source: WhiteRhino (IMAX Extreme Nature Collection 4K BD)







Format : Matroska
Format version : Version 4
File size : 1.99 GiB
Duration : 38 min 33 s
Overall bit rate : 7 383 kb/s
Writing application : HandBrake 1.2.0 2018121700

Video
ID : 1
Format : HEVC
Format/Info : High Efficiency Video Coding
Format profile : Main [email protected]@High
Codec ID : V_MPEGH/ISO/HEVC
Duration : 38 min 4 s
Bit rate : 6 916 kb/s
Width : 3 840 pixels
Height : 2 160 pixels
Display aspect ratio : 16:9
Frame rate mode : Constant
Frame rate : 23.976 (24000/1001) FPS
Color space : YUV
Chroma subsampling : 4:2:0
Bit depth : 10 bits
Bits/(Pixel*Frame) : 0.035
Stream size : 1.84 GiB (92%)
Writing library : x265 2.9:[Windows][GCC 7.1.0][64 bit] 10bit
Color primaries : BT.709
Transfer characteristics : BT.709
Matrix coefficients : BT.709

Audio
ID : 2
Format : AC-3
Format/Info : Audio Coding 3
Commercial name : Dolby Digital
Codec ID : A_AC3
Duration : 38 min 33 s
Bit rate mode : Constant
Bit rate : 320 kb/s
Channel(s) : 6 channels
Channel layout : L R C LFE Ls Rs
Sampling rate : 48.0 kHz
Frame rate : 31.250 FPS (1536 SPF)
Bit depth : 16 bits
Compression mode : Lossy
Stream size : 88.3 MiB (4%)
Title : Surround
Language : English

Text
Language : English
Language : French
Language : Danish
Language : Dutch
Language : Finnish
Language : German
Language : Norwegian
Language : Swedish
Default : No
Forced : No

Files:

  • Extreme Nature Titans of the Ice Age (2013) 2160p) SDR 5.1 x265 10bit Phun Psyz.mkv (2.0 GB)

There are currently no comments. Feel free to leave one :)

Code:

  • udp://tracker.opentrackr.org:1337/announce
  • udp://tracker.coppersurfer.tk:6969/announce
  • udp://thetracker.org:80/announce
  • udp://tracker.pirateparty.gr:6969/announce
  • udp://tracker.internetwarriors.net:1337/announce
  • udp://tracker.torrent.eu.org:451/announce
  • udp://tracker.tiny-vps.com:6969/announce
  • udp://explodie.org:6969/announce
  • http://explodie.org:6969/announce
  • udp://open.stealth.si:80/announce
  • udp://open.demonii.si:1337/announce
  • udp://tracker.uw0.xyz:6969/announce
  • udp://ipv4.tracker.harry.lu:80/announce
  • udp://denis.stalker.upeer.me:6969/announce
  • http://open.acgtracker.com:1096/announce
SitemapPaper bag | 11eyes English Subbed | Gate : Jieitai Kanochi Nite Kaku Tatakaeri BD Subtitle Indonesia Avast Mobile Security Antivirus cracked | Allegiance | IMDb: 3 15 HD Cold Pressed